找回密码
 立即注册
快捷导航
发帖
飘盘 聊天 资讯 萌图 漫画 动画 规则 帮助 手机客户端 新手指南
查看: 1505|回复: 34

[流行音乐歌曲] 台湾周日狂热夜20080405-20080621[720P/MKV/25.7G/百度云

  [复制链接]

签到天数: 219 天

[LV.7]常住居民III

124

主题

0

好友

1978

积分

风之精灵LV.1

Rank: 8Rank: 8Rank: 8Rank: 8

帖子
1356
雪点
6795
阅读权限
70
性别
在线时间
160 小时
注册时间
2014-11-8
最后登录
2020-2-24
发表于 2017-8-18 11:31:50 | 显示全部楼层 |阅读模式
本帖最后由 wonderf 于 2017-8-18 11:33 编辑



简介:

节目名称:周日狂热夜;

播出频道:台湾公共电视

播出时间:每周日(2006年4月9日首播)

第一季主持人:庾澄庆、范玮琪

现任主持人:袁惟仁、黄韵玲

公共电视在 2006 年规划了优质的音乐综艺节目,邀请哈林(庾澄庆)及范范(范玮琪)入主公视主持,以丰富的音乐背景及唱功、打破传统歌唱节目的模式,邀请不同年代、不同性别、不同歌路的歌手,以音乐丰富周日的夜晚。第一季结束后,换主持人为袁惟仁、黄韵玲。

2006年,该节目入围06年度台湾金钟奖歌唱综艺奖。

中 文 名 周日狂热夜
频    道 台湾公共电视
首播时间 2006年4月9日
现任主持人 袁惟仁,黄韵玲
类    型 综艺节目


单元内容

音乐背后的故事

每一首隽永的歌曲背后都诉说着一个时代背景、一种儿女情长、或是一个就发生在你我身边的故事。没有高雄港边那位痴痴等着情郎靠岸的女人,就没有流唱三十年不绝於耳的「港都夜雨」;没有现在狗仔的媒体文化,就没有周杰伦的讽刺戏谑的「打狗歌」。本段将访问歌曲的作词作曲者,让歌词或歌曲背后的故事,透过访问和模拟剧的方式一点一滴的传唱成故事。

穿梭时光三十年

相信很多三、四年级生一定还记得 崔苔菁以一首「爱神」风靡台湾;五、六年级生对於小虎队「青苹果乐园」所营造百万少女的青涩幻想仍记忆犹新;还是您可能比较熟悉周杰伦引领上万人齐唱 ” 快使用双节棍、哼哼哈希… ” ,那你一定就是七年级生了!

当陶喆可以用『望春风』打动所有七年级生,王力宏可以用『龙的传人』一跃成为金曲歌王的时候,谁说谢雷不能唱『沙滩』,林冲不能唱『黑色幽默』呢? 各个年级一定都有自己的代表歌曲和流行人物, 我们要打破传破歌唱节目的模式,受邀的资深与年轻歌手将互换角色,各自以他们自己的方式,彼此翻唱横跨台湾三十年来的流行金曲。 让音乐真正的跨越时空。成为人类可以永久流传的重要元素之一。

周日歌剧院

为了更加强节目的音乐性及娱乐性,针对主持人在音乐上的深厚功力,本单元每集请来一位唱将级歌手和主持人『玩音乐』。

本单元藉由庾澄庆在音乐上的深度和广度,范玮琪在演唱及创作中优异的表现,以不插电、重新编曲、组曲…等方式和来宾让一条条流行歌曲以各种不同的面貌重新展现。

音乐私房故事

「 你怎么舍得我难过 」这首歌在红遍大街小巷、传唱千万遍之前,黄品源曾背着吉他在唱片公司楼下枯等一个下午,只为了在黄韵玲面前唱一次!

亚洲天后张惠妹出道前在节目五灯奖里,达到四度五关时竟惨遭淘汱?!所有的人都爱听故事,本单元邀请歌手,来谈谈他生命中最特别的一首歌,以『模拟剧』的方式来呈现这首歌背后发生的故事,再邀请故事中的主要人物出场,重建当时的景像,带给观众更新的感动!

特别企划-年度特别节目

『周日狂热夜』除了每周节目播出之外,将于每年岁末举办一年度大型歌唱竞赛,我们将会让两个不同世代的歌星艺人们分成两队,以音乐及竞赛的方式跟观众一起迎接新的一年。


视频截图:



视频信息:

General
Unique ID                      : 194949709297959539134843612640887137466 (0x92A9F2C263C8D8AC897803AC0C5364BA)
Complete name                  : H:\台湾周日狂热夜\Sunday.Night.Fever.2008.04.05.720P.HDTV.X264-StTVG.mkv
Format                         : Matroska
Format version                 : Version 1
File size                      : 2.14 GiB
Duration                       : 1 h 18 min
Overall bit rate mode          : Variable
Overall bit rate               : 3 893 kb/s
Encoded date                   : UTC 2008-04-06 02:22:41
Writing application            : mkvmerge v2.2.0 ('Turn It On Again') built on Mar  4 2008 12:58:26
Writing library                : libebml v0.7.7 + libmatroska v0.8.1

Video
ID                             : 1
Format                         : AVC
Format/Info                    : Advanced Video Codec
Format profile                 : High@L5.1
Format settings, CABAC         : Yes
Format settings, ReFrames      : 3 frames
Codec ID                       : V_MPEG4/ISO/AVC
Duration                       : 1 h 18 min
Bit rate mode                  : Variable
Bit rate                       : 3 431 kb/s
Maximum bit rate               : 38.0 Mb/s
Width                          : 1 280 pixels
Height                         : 720 pixels
Display aspect ratio           : 16:9
Frame rate mode                : Constant
Frame rate                     : 25.000 FPS
Color space                    : YUV
Chroma subsampling             : 4:2:0
Bit depth                      : 8 bits
Scan type                      : Progressive
Bits/(Pixel*Frame)             : 0.149
Stream size                    : 1.89 GiB (88%)
Title                          : X264
Default                        : Yes
Forced                         : No

Audio
ID                             : 2
Format                         : AC-3
Format/Info                    : Audio Coding 3
Mode extension                 : CM (complete main)
Format settings, Endianness    : Big
Codec ID                       : A_AC3
Duration                       : 1 h 18 min
Bit rate mode                  : Constant
Bit rate                       : 384 kb/s
Channel(s)                     : 6 channels
Channel positions              : Front: L C R, Side: L R, LFE
Sampling rate                  : 48.0 kHz
Frame rate                     : 31.250 FPS (1536 spf)
Bit depth                      : 16 bits
Compression mode               : Lossy
Stream size                    : 216 MiB (10%)
Title                          : Mandarin CH5.1
Language                       : Chinese
Default                        : Yes
Forced                         : No


游客,如果您要查看本帖隐藏内容请回复

飘雪动漫社★缤纷动漫☆创意未来!

签到天数: 2096 天

[LV.Master]伴坛终老

807

主题

6

好友

3万

积分

超级版主

Rank: 25Rank: 25Rank: 25Rank: 25Rank: 25

帖子
31083
雪点
428
阅读权限
250
在线时间
5263 小时
注册时间
2013-11-20
最后登录
2020-2-28
发表于 2017-8-18 12:23:08 | 显示全部楼层
無乜興趣的台湾周日狂热夜

有聲 無畫面, 出不了字幕, 以下的可以
potplayer download link ->  https://potplayer.daum.net/?lang=zh_TW
MPC download link -> http://www.free-codecs.com/k_lite_codec_pack_download.htm
回复 支持 反对

使用道具 举报

签到天数: 2442 天

[LV.Master]伴坛终老

18

主题

23

好友

1万

积分

炎之精灵LV.2

Rank: 17Rank: 17Rank: 17Rank: 17Rank: 17

帖子
13156
雪点
83468
阅读权限
110
在线时间
3369 小时
注册时间
2012-7-1
最后登录
2020-2-28
发表于 2017-8-18 15:09:44 | 显示全部楼层
睇落唔错的,有好多歌曲演唱分享咁样,支持下。
飘雪动漫社★缤纷动漫☆创意未来!
回复 支持 反对

使用道具 举报

签到天数: 1147 天

[LV.10]以坛为家III

12

主题

1

好友

1906

积分

风之精灵LV.1

Rank: 8Rank: 8Rank: 8Rank: 8

帖子
1325
雪点
6707
阅读权限
70
在线时间
613 小时
注册时间
2014-11-1
最后登录
2020-2-28
发表于 2017-8-18 18:40:08 | 显示全部楼层
高清翡翠台又播过?
回复 支持 反对

使用道具 举报

签到天数: 2273 天

[LV.Master]伴坛终老

32

主题

5

好友

2万

积分

炎之精灵LV.3

Rank: 17Rank: 17Rank: 17Rank: 17Rank: 17

帖子
22534
雪点
556
阅读权限
120
在线时间
3778 小时
注册时间
2013-3-22
最后登录
2020-2-28
发表于 2017-8-18 19:33:38 | 显示全部楼层
超大合集!
回复 支持 反对

使用道具 举报

签到天数: 1889 天

[LV.Master]伴坛终老

20

主题

0

好友

1万

积分

炎之精灵LV.2

人生如戏,全靠演技 ~

Rank: 17Rank: 17Rank: 17Rank: 17Rank: 17

帖子
19831
雪点
248
阅读权限
110
性别
在线时间
1050 小时
注册时间
2014-7-31
最后登录
2020-2-28

百变小樱知世李小狼木之本樱基路仔だんご大家族彭格列黑手党阪本先生初音未来巡音露卡Haru櫻乃★丶见崎鸣風穴あける☆アリア侵略!乌贼娘女王控水の人鱼松前緒花松前緒花骑士王Saber悪魔の白娅みほの梦想夢想の的愛~靈犀棚町薰Shiny Gift坂田銀時神樂志村新八定春女仆玛利亚朝风理沙花菱美希瀨川泉紫原敦黄濑凉太绿间真太郎黑子哲也哈比夏露露波波乔巴西雅爾·法多姆海貝梦想の的爱~初衷冈崎朋也莱.马斯丹森島遙L桂小太郎爱德华.艾力克艾尔凡斯.艾力克春风千樱安城鸣子赤司征十郎羅羅諾亞卓洛绫崎飒三千院凪藤林椋

发表于 2017-8-18 22:27:15 | 显示全部楼层
还是喜欢大陆多点。。
回复 支持 反对

使用道具 举报

签到天数: 434 天

[LV.9]以坛为家II

12

主题

0

好友

1万

积分

炎之精灵LV.1

Rank: 17Rank: 17Rank: 17Rank: 17Rank: 17

帖子
13450
雪点
7620
阅读权限
100
性别
在线时间
551 小时
注册时间
2017-6-4
最后登录
2020-2-13
发表于 2017-8-18 22:29:07 | 显示全部楼层
好像唔错啊
飘雪动漫社★缤纷动漫☆创意未来!
回复 支持 反对

使用道具 举报

签到天数: 1937 天

[LV.Master]伴坛终老

99

主题

7

好友

2万

积分

炎之精灵LV.3

Rank: 17Rank: 17Rank: 17Rank: 17Rank: 17

帖子
25058
雪点
8825
阅读权限
120
性别
保密
在线时间
2756 小时
注册时间
2014-4-6
最后登录
2020-2-28
发表于 2017-8-19 02:37:36 | 显示全部楼层
好似唔错,支持下!
飘雪动漫社★缤纷动漫☆创意未来!
回复 支持 反对

使用道具 举报

签到天数: 1964 天

[LV.Master]伴坛终老

594

主题

57

好友

10万

积分

精灵王☆

Rank: 17Rank: 17Rank: 17Rank: 17Rank: 17

帖子
107449
雪点
14391
阅读权限
130
在线时间
12609 小时
注册时间
2014-5-26
最后登录
2020-2-28
发表于 2017-8-19 04:42:40 | 显示全部楼层
睇下台灣嘅音樂節目,裡面有乜嘢歌曲先
回复 支持 反对

使用道具 举报

签到天数: 1084 天

[LV.10]以坛为家III

34

主题

3

好友

1万

积分

炎之精灵LV.1

Rank: 17Rank: 17Rank: 17Rank: 17Rank: 17

帖子
10359
雪点
647
阅读权限
100
性别
在线时间
908 小时
注册时间
2016-11-29
最后登录
2020-2-28
发表于 2017-8-19 22:31:14 | 显示全部楼层
感謝樓主分享·
飘雪动漫社★缤纷动漫☆创意未来!
回复 支持 反对

使用道具 举报

您需要登录后才可以回帖 登录 | 立即注册

本版积分规则

下载客户端
安卓客户端 IOS客户端

快来加入我们吧!!

官方QQ群号

飘雪动漫社

Powered by Discuz! X3.4© 2001-2019 Comsenz Inc.

手机版| 小黑屋| Archiver| 粤梦缘

GMT+8, 2020-2-28 15:43 , Processed in 0.163795 second(s), 38 queries , MemCache On.