找回密码
 立即注册
快捷导航
发帖
飘盘 聊天 资讯 萌图 漫画 动画 规则 帮助 手机客户端 新手指南
查看: 221|回复: 27

[粤语动画] [原创][哆啦A梦剧场版1992:大雄与云之王国][1080i/HDTV/TS/国粤客日七语/15.03GB]

  [复制链接]

签到天数: 166 天

[LV.7]常住居民III

14

主题

1

好友

197

积分

水之精灵LV.3

Rank: 4Rank: 4

帖子
62
雪点
1407
阅读权限
30
性别
在线时间
63 小时
注册时间
2015-11-27
最后登录
2019-9-17
发表于 2019-9-6 22:51:02 | 显示全部楼层 |阅读模式
片源由a574045075提供,在此感谢!
台配国语音轨(小叮当版)、粤语音轨(叮当版)提取自VCD,台配国语音轨(哆啦A梦版)、粤语音轨(多啦A梦版)提取自DVD,TVB粤语取自翡翠台录制源码,台湾客家话音轨取自台湾客语频道源码,已做调制匹配高清重制版。
如需转载,请注明出处!

[attach]122370[/attach]
◎译  名 哆啦A梦:大雄与云之国 / Doraemon: Nobita and the Kingdom of Clouds / Doraemon: Nobita to Kumo no ôkoku / 哆啦A梦:大雄的梦幻王国
◎片  名 ドラえもん のび太と云の王国
◎年  代 1992
◎产  地 日本
◎类  别 科幻 / 动画 / 冒险
◎语  言 日语
◎上映日期 1992-03-07(日本)
◎IMDb评分  6.7/10 from 170 users
◎IMDb链接  http://www.imdb.com/title/tt1147523
◎豆瓣评分 8.6/10 from 4495 users
◎豆瓣链接 https://movie.douban.com/subject/1458900/
◎片  长 97分钟
◎导  演 芝山努 Tsutomu Shibayama
◎编  剧 藤子 · F · 不二雄 F. Fujio Fujiko
◎主  演 大山信代 Nobuyo Ohyama
       小原乃梨子 Noriko Ohara
       野村道子 Michiko Nomura
       立壁和也 Kazuya Tatekabe
       肝付兼太 Kaneta Kimotsuki

◎简  介  

  大雄相信天空上有云之国,遭到好友们的嘲笑。哆啦A梦用未来的神奇工具和大雄共同打造属于自己的云之国,建好之后,好友们被邀请上来,大家度过一段快乐的时光。
  漂浮的云之国停在阿尔卑斯山上,大雄他们解救了一个神秘的男孩,不久后男孩失踪。正当他们四处寻找的时候,突然真正的云之国出现在他们面前。小伙伴们受到邀请,见识到了云之国高度发达的文明,深表惊奇。但是他们却被天上人软禁,无法回到地面。更进一步得知,天上人正在密谋一个“诺亚计划”,企图用洪水将为非作歹的人类从地球上抹去……

[attach]122371[/attach]
[attach]122372[/attach]
[attach]122373[/attach]
  1. General
  2. ID                             : 1 (0x1)
  3. Complete name                  : J:\Doraemon Nobita and the Kingdom of Clouds 1992 HDTV 1080i MPEG-2 7Audio-doraemon.ts
  4. Format                         : MPEG-TS
  5. File size                      : 15.0 GiB
  6. Duration                       : 1 h 37 min
  7. Overall bit rate mode          : Variable
  8. Overall bit rate               : 22.1 Mb/s
  9. Maximum Overall bit rate       : 35.5 Mb/s

  10. Video
  11. ID                             : 4113 (0x1011)
  12. Menu ID                        : 1 (0x1)
  13. Format                         : MPEG Video
  14. Format version                 : Version 2
  15. Format profile                 : Main@High
  16. Format settings                : CustomMatrix / BVOP
  17. Format settings, BVOP          : Yes
  18. Format settings, Matrix        : Custom
  19. Format settings, GOP           : Variable
  20. Format settings, picture struc : Frame
  21. Codec ID                       : 2
  22. Duration                       : 1 h 37 min
  23. Bit rate mode                  : Variable
  24. Width                          : 1 920 pixels
  25. Height                         : 1 080 pixels
  26. Display aspect ratio           : 16:9
  27. Frame rate                     : 29.970 (30000/1001) FPS
  28. Color space                    : YUV
  29. Chroma subsampling             : 4:2:0
  30. Bit depth                      : 8 bits
  31. Scan type                      : Interlaced
  32. Scan order                     : Top Field First
  33. Compression mode               : Lossy
  34. Time code of first frame       : 00:00:00:00
  35. Time code source               : Group of pictures header
  36. GOP, Open/Closed               : Open
  37. Color primaries                : BT.709
  38. Transfer characteristics       : BT.709
  39. Matrix coefficients            : BT.709

  40. Audio #1
  41. ID                             : 4352 (0x1100)
  42. Menu ID                        : 1 (0x1)
  43. Format                         : AAC LC
  44. Format/Info                    : Advanced Audio Codec Low Complexity
  45. Format version                 : Version 2
  46. Muxing mode                    : ADTS
  47. Codec ID                       : 15-2
  48. Duration                       : 1 h 37 min
  49. Bit rate mode                  : Variable
  50. Channel(s)                     : 2 channels
  51. Channel layout                 : L R
  52. Sampling rate                  : 48.0 kHz
  53. Frame rate                     : 46.875 FPS (1024 SPF)
  54. Compression mode               : Lossy
  55. Language                       : Japanese

  56. Audio #2
  57. ID                             : 4353 (0x1101)
  58. Menu ID                        : 1 (0x1)
  59. Format                         : AC-3
  60. Format/Info                    : Audio Coding 3
  61. Commercial name                : Dolby Digital
  62. Codec ID                       : 129
  63. Duration                       : 1 h 37 min
  64. Bit rate mode                  : Constant
  65. Bit rate                       : 384 kb/s
  66. Channel(s)                     : 2 channels
  67. Channel layout                 : L R
  68. Sampling rate                  : 48.0 kHz
  69. Frame rate                     : 31.250 FPS (1536 SPF)
  70. Bit depth                      : 16 bits
  71. Compression mode               : Lossy
  72. Stream size                    : 268 MiB (2%)
  73. Language                       : Chinese (台配国语哆啦A梦版)
  74. Service kind                   : Complete Main

  75. Audio #3
  76. ID                             : 4354 (0x1102)
  77. Menu ID                        : 1 (0x1)
  78. Format                         : AC-3
  79. Format/Info                    : Audio Coding 3
  80. Commercial name                : Dolby Digital
  81. Codec ID                       : 129
  82. Duration                       : 1 h 37 min
  83. Bit rate mode                  : Constant
  84. Bit rate                       : 224 kb/s
  85. Channel(s)                     : 2 channels
  86. Channel layout                 : L R
  87. Sampling rate                  : 48.0 kHz
  88. Frame rate                     : 31.250 FPS (1536 SPF)
  89. Bit depth                      : 16 bits
  90. Compression mode               : Lossy
  91. Stream size                    : 156 MiB (1%)
  92. Language                       : Chinese (台配国语小叮当版)
  93. Service kind                   : Complete Main

  94. Audio #4
  95. ID                             : 4355 (0x1103)
  96. Menu ID                        : 1 (0x1)
  97. Format                         : AC-3
  98. Format/Info                    : Audio Coding 3
  99. Commercial name                : Dolby Digital
  100. Codec ID                       : 129
  101. Duration                       : 1 h 37 min
  102. Bit rate mode                  : Constant
  103. Bit rate                       : 192 kb/s
  104. Channel(s)                     : 2 channels
  105. Channel layout                 : L R
  106. Sampling rate                  : 48.0 kHz
  107. Frame rate                     : 31.250 FPS (1536 SPF)
  108. Bit depth                      : 16 bits
  109. Compression mode               : Lossy
  110. Stream size                    : 134 MiB (1%)
  111. Language                       : Chinese (粤配多啦A梦版)
  112. Service kind                   : Complete Main

  113. Audio #5
  114. ID                             : 4356 (0x1104)
  115. Menu ID                        : 1 (0x1)
  116. Format                         : AC-3
  117. Format/Info                    : Audio Coding 3
  118. Commercial name                : Dolby Digital
  119. Codec ID                       : 129
  120. Duration                       : 1 h 37 min
  121. Bit rate mode                  : Constant
  122. Bit rate                       : 192 kb/s
  123. Channel(s)                     : 2 channels
  124. Channel layout                 : L R
  125. Sampling rate                  : 48.0 kHz
  126. Frame rate                     : 31.250 FPS (1536 SPF)
  127. Bit depth                      : 16 bits
  128. Compression mode               : Lossy
  129. Stream size                    : 134 MiB (1%)
  130. Language                       : Chinese (粤配叮当版)
  131. Service kind                   : Complete Main
  132. Audio #6
  133. ID                             : 4357 (0x1105)
  134. Menu ID                        : 1 (0x1)
  135. Format                         : AC-3
  136. Format/Info                    : Audio Coding 3
  137. Commercial name                : Dolby Digital
  138. Codec ID                       : 129
  139. Duration                       : 1 h 37 min
  140. Bit rate mode                  : Constant
  141. Bit rate                       : 192 kb/s
  142. Channel(s)                     : 2 channels
  143. Channel layout                 : L R
  144. Sampling rate                  : 48.0 kHz
  145. Frame rate                     : 31.250 FPS (1536 SPF)
  146. Bit depth                      : 16 bits
  147. Compression mode               : Lossy
  148. Stream size                    : 134 MiB (1%)
  149. Language                       : Chinese (TVB粤配多啦A梦版)
  150. Service kind                   : Complete Main

  151. Audio #7
  152. ID                             : 4358 (0x1106)
  153. Menu ID                        : 1 (0x1)
  154. Format                         : AC-3
  155. Format/Info                    : Audio Coding 3
  156. Commercial name                : Dolby Digital
  157. Codec ID                       : 129
  158. Duration                       : 1 h 37 min
  159. Bit rate mode                  : Constant
  160. Bit rate                       : 192 kb/s
  161. Channel(s)                     : 2 channels
  162. Channel layout                 : L R
  163. Sampling rate                  : 48.0 kHz
  164. Frame rate                     : 31.250 FPS (1536 SPF)
  165. Bit depth                      : 16 bits
  166. Compression mode               : Lossy
  167. Stream size                    : 134 MiB (1%)
  168. Language                       : Chinese (台湾客家话)
  169. Service kind                   : Complete Main
复制代码


购买主题 已有 9 人购买  本主题需向作者支付 5 雪点 才能浏览
飘雪动漫社★缤纷动漫☆创意未来!

签到天数: 516 天

[LV.9]以坛为家II

7

主题

2

好友

1112

积分

土之精灵LV.3

Rank: 7Rank: 7Rank: 7

帖子
747
雪点
4347
阅读权限
60
性别
在线时间
224 小时
注册时间
2018-3-26
最后登录
2019-9-21
发表于 2019-9-6 23:01:02 | 显示全部楼层
这集竟然也有客家话啊。
飘雪动漫社★缤纷动漫☆创意未来!
回复 支持 反对

使用道具 举报

签到天数: 1317 天

[LV.10]以坛为家III

3

主题

9

好友

1万

积分

炎之精灵LV.1

Rank: 17Rank: 17Rank: 17Rank: 17Rank: 17

帖子
14074
雪点
4144
阅读权限
100
性别
在线时间
1278 小时
注册时间
2014-8-23
最后登录
2019-9-21
发表于 2019-9-6 23:42:39 | 显示全部楼层
哗,容量好大,好高清啊
飘雪动漫社★缤纷动漫☆创意未来!
回复 支持 反对

使用道具 举报

签到天数: 1411 天

[LV.10]以坛为家III

1

主题

0

好友

2031

积分

风之精灵LV.1

Rank: 8Rank: 8Rank: 8Rank: 8

帖子
424
雪点
20019
阅读权限
70
性别
保密
在线时间
283 小时
注册时间
2015-5-7
最后登录
2019-9-21
发表于 2019-9-7 00:05:36 | 显示全部楼层
厉害啊,咁多语言版本~~~~~~~~
飘雪动漫社★缤纷动漫☆创意未来!
回复 支持 反对

使用道具 举报

签到天数: 83 天

[LV.6]常住居民II

167

主题

69

好友

7612

积分

版主

Rank: 23Rank: 23Rank: 23Rank: 23Rank: 23

帖子
5898
雪点
12408
阅读权限
200
在线时间
7125 小时
注册时间
2012-5-19
最后登录
2019-9-21

哈比夏露露松前緒花松前緒花水の人鱼森島遙基路仔初音未来安城鸣子Shiny Gift西雅爾·法多姆海貝L彭格列黑手党夢想の的愛~靈犀侵略!乌贼娘Haru櫻乃★丶悪魔の白娅骑士王Saber巡音露卡坂田銀時神樂志村新八定春桂小太郎见崎鸣梦想の的爱~初衷みほの梦想春风千樱绫崎飒波波朝风理沙花菱美希瀨川泉艾尔凡斯.艾力克莱.马斯丹赤司征十郎紫原敦黄濑凉太绿间真太郎藤林椋だんご大家族乔巴阪本先生

发表于 2019-9-7 00:12:27 | 显示全部楼层
本帖最后由 chrisrex 于 2019-9-7 00:13 编辑

有人分流都唔错啵,唔使down 乜t嘥流量
原来系原创,唔通tt乜都系你发嘅
出关了,发现有死档,欢迎pm,有货会补档
回复 支持 反对

使用道具 举报

签到天数: 1804 天

[LV.Master]伴坛终老

552

主题

57

好友

9万

积分

精灵王

Rank: 17Rank: 17Rank: 17Rank: 17Rank: 17

帖子
95464
雪点
2553
阅读权限
130
在线时间
11568 小时
注册时间
2014-5-26
最后登录
2019-9-21
发表于 2019-9-7 01:13:23 | 显示全部楼层
辛苦曬整呢出哆啦A夢電影啊
回复 支持 反对

使用道具 举报

签到天数: 924 天

[LV.10]以坛为家III

13

主题

3

好友

3533

积分

风之精灵LV.2

Rank: 13Rank: 13Rank: 13

帖子
3430
雪点
1254
阅读权限
80
性别
在线时间
900 小时
注册时间
2013-5-7
最后登录
2019-9-21
发表于 2019-9-7 01:41:10 | 显示全部楼层 来自安卓客户端来自安卓客户端
kk82 发表于 2019-9-6 23:01
这集竟然也有客家话啊。

第一次看到客家话配音,不过容量太大了,支持不了。
飘雪动漫社★缤纷动漫☆创意未来!
回复 支持 反对

使用道具 举报

签到天数: 28 天

[LV.4]偶尔看看III

124

主题

4

好友

2904

积分

风之精灵LV.1

粤语动画拾荒者

Rank: 8Rank: 8Rank: 8Rank: 8

帖子
2542
雪点
2474
阅读权限
70
性别
在线时间
766 小时
注册时间
2012-8-21
最后登录
2019-9-20
发表于 2019-9-7 06:32:32 | 显示全部楼层
睇圖,畫質擔憂。 不過好多條音幾吸引。但甘D畫質相比個容量,真心唔多想下。支持下算了。
粤语是我的收藏标的!!
回复 支持 反对

使用道具 举报

签到天数: 1463 天

[LV.10]以坛为家III

 成长值: 7065

201

主题

5

好友

1万

积分

贵宾

Rank: 25Rank: 25Rank: 25Rank: 25Rank: 25

帖子
3307
雪点
81005
阅读权限
150
性别
保密
在线时间
2495 小时
注册时间
2014-6-6
最后登录
2019-9-21
发表于 2019-9-7 08:30:22 | 显示全部楼层
多谢分享哆啦A梦经典剧场版
飘雪动漫社★缤纷动漫☆创意未来!
回复 支持 反对

使用道具 举报

签到天数: 2128 天

[LV.Master]伴坛终老

28

主题

5

好友

1万

积分

炎之精灵LV.2

Rank: 17Rank: 17Rank: 17Rank: 17Rank: 17

帖子
18779
雪点
977
阅读权限
110
在线时间
3397 小时
注册时间
2013-3-22
最后登录
2019-9-20
发表于 2019-9-7 09:15:06 | 显示全部楼层
支持高清哆啦A梦
回复 支持 反对

使用道具 举报

您需要登录后才可以回帖 登录 | 立即注册

本版积分规则

下载客户端
安卓客户端 IOS客户端

快来加入我们吧!!

官方QQ群号

飘雪动漫社

Powered by Discuz! X3.4© 2001-2019 Comsenz Inc.

手机版| 小黑屋| Archiver| 粤梦缘

GMT+8, 2019-9-21 15:34 , Processed in 0.109175 second(s), 41 queries , MemCache On.