找回密码
 立即注册
快捷导航
发帖
飘盘 聊天 资讯 萌图 漫画 动画 规则 帮助 手机客户端 新手指南
查看: 739|回复: 42

[粤语动画] [原创][哆啦A梦剧场版1996:大雄与银河特快急][1080i/HDTV/TS/国粤日三语][14.24GB]

  [复制链接]

签到天数: 186 天

[LV.7]常住居民III

19

主题

1

好友

275

积分

土之精灵LV.1

Rank: 5Rank: 5Rank: 5

帖子
85
雪点
1948
阅读权限
40
性别
在线时间
76 小时
注册时间
2015-11-27
最后登录
2020-11-28
发表于 2020-8-3 01:52:16 | 显示全部楼层 |阅读模式
片源由a574045075提供,在此感谢!
陆配国语音轨(小叮当版)提取自VCD,粤语音轨(多啦A梦版)提取自网络,已做调制匹配高清重制版。
如需转载,请注明出处!

[attach]131676[/attach]
◎译  名 哆啦A梦:大雄与银河超特急 / Doraemon: Nobita to Ginga ekusupuresu
◎片  名 ドラえもん のび太と銀河超特急
◎年  代 1996
◎产  地 日本
◎类  别 科幻 / 动画 / 冒险
◎语  言 日语
◎上映日期 1996-03-02(日本)
◎IMDb评分  6.7/10 from 179 users
◎IMDb链接  https://www.imdb.com/title/tt1147522
◎豆瓣评分 8.5/10 from 4007 users
◎豆瓣链接 https://movie.douban.com/subject/1458904/
◎片  长 99分钟
◎导  演 芝山努 Tsutomu Shibayama
◎编  剧 藤子 · F · 不二雄 F. Fujio Fujiko
◎主  演 大山信代 Nobuyo Ohyama
◎主  演 大山信代 Nobuyo Ohyama
       小原乃梨子 Noriko Ohara
       立壁和也 Kazuya Tatekabe
       肝付兼太 Kaneta Kimotsuki
       野村道子 Michiko Nomura
       盐泽兼人 Kaneto Shiozawa
       伊仓一惠 Kazue Ikura
       真殿光昭 Mitsuaki Madono
       丹下樱 Sakura Tange
       秋元羊介 Yôsuke Akimoto
       中村大树 Daiki Nakamura
       森川智之 Toshiyuki Morikawa

◎简  介  

  在空地上,小夫(肝付兼太 配音)向大家炫耀现在最畅销的神秘火车的车票,胖虎(立壁和也 配音)和静香(野村道子 配音)恳求小夫也带他们去。这时,大雄(小原乃梨子 配音)急匆匆跑了过来,哆啦A梦(大山信代 配音)已经三天没回家,小夫和胖虎在一旁幸灾乐祸的笑着。晚上,哆啦A梦回来了,原来这三天他跑到了22世纪去买银河列车的车票。第二天晚上,银河列车在后山停站了,大雄和哆啦A梦开始了他们的银河之旅,车长(伊仓一恵 配音)总是笑嘻嘻,很有礼貌。另一边,神秘的生命体降落在了后山,是来自宇宙的寄居物,寄居物将自己附在人类的身体上,来操纵人的大脑,他们的目的是将整个地球毁灭掉。
  在车上奇奇怪怪的事情发生不断,大雄在车厢外看到了一个忍者,小夫说看见了海盗,胖虎则看见了恐龙。哆啦A梦告诉大雄他们出现了一伙“神秘黑色影团”。遭到黑色影团的袭击后,列车在一颗行星上停下了,而冒险这才刚刚开始……

[attach]131678[/attach]
[attach]131677[/attach]
[attach]131679[/attach]
  1. General
  2. ID                             : 1 (0x1)
  3. Complete name                  : Doraemon Nobita and the Galaxy Super-express 1996 HDTV 1080i MPEG-2 3Audio-doraemon.ts
  4. Format                         : MPEG-TS
  5. File size                      : 14.2 GiB
  6. Duration                       : 1 h 37 min
  7. Overall bit rate mode          : Variable
  8. Overall bit rate               : 21.0 Mb/s
  9. Maximum Overall bit rate       : 35.5 Mb/s

  10. Video
  11. ID                             : 4113 (0x1011)
  12. Menu ID                        : 1 (0x1)
  13. Format                         : MPEG Video
  14. Format version                 : Version 2
  15. Format profile                 : Main@High
  16. Format settings                : CustomMatrix / BVOP
  17. Format settings, BVOP          : Yes
  18. Format settings, Matrix        : Custom
  19. Format settings, GOP           : Variable
  20. Format settings, picture struc : Frame
  21. Codec ID                       : 2
  22. Duration                       : 1 h 37 min
  23. Bit rate mode                  : Variable
  24. Width                          : 1 920 pixels
  25. Height                         : 1 080 pixels
  26. Display aspect ratio           : 16:9
  27. Frame rate                     : 29.970 (30000/1001) FPS
  28. Color space                    : YUV
  29. Chroma subsampling             : 4:2:0
  30. Bit depth                      : 8 bits
  31. Scan type                      : Interlaced
  32. Scan order                     : Top Field First
  33. Compression mode               : Lossy
  34. Time code of first frame       : 00:00:00:00
  35. Time code source               : Group of pictures header
  36. GOP, Open/Closed               : Open
  37. Color primaries                : BT.709
  38. Transfer characteristics       : BT.709
  39. Matrix coefficients            : BT.709

  40. Audio #1
  41. ID                             : 4352 (0x1100)
  42. Menu ID                        : 1 (0x1)
  43. Format                         : AAC LC
  44. Format/Info                    : Advanced Audio Codec Low Complexity
  45. Format version                 : Version 2
  46. Muxing mode                    : ADTS
  47. Codec ID                       : 15-2
  48. Duration                       : 1 h 37 min
  49. Channel(s)                     : 2 channels
  50. Channel layout                 : L R
  51. Sampling rate                  : 48.0 kHz
  52. Frame rate                     : 46.875 FPS (1024 SPF)
  53. Compression mode               : Lossy
  54. Language                       : Japanese

  55. Audio #2
  56. ID                             : 4353 (0x1101)
  57. Menu ID                        : 1 (0x1)
  58. Format                         : AC-3
  59. Format/Info                    : Audio Coding 3
  60. Commercial name                : Dolby Digital
  61. Codec ID                       : 129
  62. Duration                       : 1 h 37 min
  63. Bit rate mode                  : Constant
  64. Bit rate                       : 224 kb/s
  65. Channel(s)                     : 2 channels
  66. Channel layout                 : L R
  67. Sampling rate                  : 48.0 kHz
  68. Frame rate                     : 31.250 FPS (1536 SPF)
  69. Compression mode               : Lossy
  70. Stream size                    : 156 MiB (1%)
  71. Language                       : Chinese (陆配国语小叮当版)
  72. Service kind                   : Complete Main

  73. Audio #3
  74. ID                             : 4354 (0x1102)
  75. Menu ID                        : 1 (0x1)
  76. Format                         : AC-3
  77. Format/Info                    : Audio Coding 3
  78. Commercial name                : Dolby Digital
  79. Codec ID                       : 129
  80. Duration                       : 1 h 37 min
  81. Bit rate mode                  : Constant
  82. Bit rate                       : 192 kb/s
  83. Channel(s)                     : 2 channels
  84. Channel layout                 : L R
  85. Sampling rate                  : 48.0 kHz
  86. Frame rate                     : 31.250 FPS (1536 SPF)
  87. Compression mode               : Lossy
  88. Stream size                    : 134 MiB (1%)
  89. Language                       : Chinese (粤配多啦A梦版)
  90. Service kind                   : Complete Main
复制代码

购买主题 已有 28 人购买  本主题需向作者支付 3 雪点 才能浏览
关于飘雪网盘链接失效解决方法【详细说明】

签到天数: 1451 天

[LV.10]以坛为家III

 成长值: 1580

52

主题

0

好友

2954

积分

精灵魔法师☆★

Rank: 25Rank: 25Rank: 25Rank: 25Rank: 25

帖子
2838
雪点
1296
阅读权限
150
在线时间
3979 小时
注册时间
2015-7-29
最后登录
2020-12-2
发表于 2020-8-3 02:17:09 | 显示全部楼层 来自安卓客户端来自安卓客户端
一個載圖都無?
回复 支持 反对

使用道具 举报

签到天数: 186 天

[LV.7]常住居民III

19

主题

1

好友

275

积分

土之精灵LV.1

Rank: 5Rank: 5Rank: 5

帖子
85
雪点
1948
阅读权限
40
性别
在线时间
76 小时
注册时间
2015-11-27
最后登录
2020-11-28
 楼主| 发表于 2020-8-3 02:18:31 | 显示全部楼层
0101a 发表于 2020-8-3 02:17
一個載圖都無?

编辑完了
关于飘雪网盘链接失效解决方法【详细说明】
回复 支持 反对

使用道具 举报

签到天数: 2786 天

[LV.Master]伴坛终老

 成长值: 1580

8

主题

0

好友

6376

积分

精灵魔法师☆★

Rank: 25Rank: 25Rank: 25Rank: 25Rank: 25

帖子
1911
雪点
54782
阅读权限
150
性别
保密
在线时间
1784 小时
注册时间
2012-8-5
最后登录
2020-12-2
发表于 2020-8-3 04:52:09 | 显示全部楼层
多謝分享大雄與銀河特快急,呢部未睇過。
关于飘雪网盘链接失效解决方法【详细说明】
回复 支持 反对

使用道具 举报

签到天数: 606 天

[LV.9]以坛为家II

2

主题

0

好友

569

积分

土之精灵LV.2

Rank: 6Rank: 6

帖子
158
雪点
4763
阅读权限
50
在线时间
169 小时
注册时间
2019-1-19
最后登录
2020-12-2
发表于 2020-8-3 07:20:58 | 显示全部楼层
哆啦A梦剧场版应该系我追得最长噶动画了,每年剧场版都睇的
关于飘雪网盘链接失效解决方法【详细说明】
回复 支持 反对

使用道具 举报

签到天数: 628 天

[LV.9]以坛为家II

4

主题

0

好友

1726

积分

风之精灵LV.1

Rank: 8Rank: 8Rank: 8Rank: 8

帖子
837
雪点
10724
阅读权限
70
性别
保密
在线时间
209 小时
注册时间
2019-2-2
最后登录
2020-12-2
发表于 2020-8-3 07:49:44 来自手机 | 显示全部楼层
未聽過有呢套既?
关于飘雪网盘链接失效解决方法【详细说明】
回复 支持 反对

使用道具 举报

签到天数: 275 天

[LV.8]以坛为家I

2

主题

0

好友

782

积分

土之精灵LV.2

Rank: 6Rank: 6

帖子
361
雪点
4889
阅读权限
50
性别
保密
在线时间
424 小时
注册时间
2019-8-22
最后登录
2020-12-2
发表于 2020-8-3 08:38:22 来自手机 | 显示全部楼层
多谢晒。无睇过呢集
关于飘雪网盘链接失效解决方法【详细说明】
回复 支持 反对

使用道具 举报

签到天数: 159 天

[LV.7]常住居民III

5

主题

3

好友

7951

积分

风之精灵LV.3

Rank: 15Rank: 15Rank: 15

帖子
7118
雪点
10028
阅读权限
90
性别
在线时间
492 小时
注册时间
2020-6-26
最后登录
2020-12-2
发表于 2020-8-3 09:01:05 来自手机 | 显示全部楼层
旧剧场版故事都好睇,不过源码真系好大
关于飘雪网盘链接失效解决方法【详细说明】
回复 支持 反对

使用道具 举报

签到天数: 1364 天

[LV.10]以坛为家III

1

主题

2

好友

2339

积分

风之精灵LV.1

Rank: 8Rank: 8Rank: 8Rank: 8

帖子
2115
雪点
2915
阅读权限
70
在线时间
953 小时
注册时间
2014-5-4
最后登录
2020-12-2
发表于 2020-8-3 10:43:03 | 显示全部楼层
thanks haven't seen this before
关于飘雪网盘链接失效解决方法【详细说明】
回复 支持 反对

使用道具 举报

签到天数: 553 天

[LV.9]以坛为家II

3

主题

0

好友

650

积分

土之精灵LV.2

Rank: 6Rank: 6

帖子
541
雪点
1239
阅读权限
50
性别
在线时间
267 小时
注册时间
2017-11-15
最后登录
2020-12-1
发表于 2020-8-3 11:54:26 | 显示全部楼层
好像还没看过,看看先
关于飘雪网盘链接失效解决方法【详细说明】
回复 支持 反对

使用道具 举报

您需要登录后才可以回帖 登录 | 立即注册

本版积分规则

下载客户端
安卓客户端 IOS客户端

快来加入我们吧!!

官方QQ群号

飘雪动漫社

Powered by Discuz! X3.4© 2001-2019 Comsenz Inc.

手机版| 小黑屋| Archiver| 粤梦缘

GMT+8, 2020-12-2 23:33 , Processed in 0.084788 second(s), 44 queries , MemCache On.